<?xml version="1.0" standalone="no"?>
<!DOCTYPE svg PUBLIC "-//W3C//DTD SVG 1.1//EN" "http://www.w3.org/Graphics/SVG/1.1/DTD/svg11.dtd" >
<svg xmlns="http://www.w3.org/2000/svg">
<metadata>Generated by IcoMoon</metadata>
<defs>
<font id="icomoon" horiz-adv-x="1024">
<font-face units-per-em="1024" ascent="960" descent="-64" />
<missing-glyph horiz-adv-x="1024" />
<glyph unicode="&#x20;" d="" horiz-adv-x="512" />
<glyph unicode="&#xe600;" d="M511.982 960c-282.763 0-511.982-229.219-511.982-512.009 0-282.754 229.219-511.982 511.982-511.982 282.799 0 512.018 229.237 512.018 511.982 0 282.79-229.219 512.009-512.018 512.009zM845.306 317.486c0-86.328-86.372-98.377-86.372-98.377h-495.914c-84.327 0-86.337 104.406-86.337 104.406s0 180.712 0 267.049 86.337 98.386 86.337 98.386h495.923c84.345 0 86.372-104.424 86.372-104.424s-0.009-180.694-0.009-267.040zM441.714 554.425v-196.79l178.72 98.395z" horiz-adv-x="1023" />
<glyph unicode="&#xe601;" d="M735.544 532.876v100.75l-12.279-0.027-82.043-0.319 0.301-100.75zM509.477 343.877c54.005 0 97.961 46.913 97.961 104.601 0 22.779-6.941 43.868-18.556 61.016-17.804 26.33-46.745 43.638-79.413 43.638-32.713 0-61.61-17.308-79.467-43.638-11.589-17.158-18.53-38.237-18.53-61.016 0.018-57.688 43.947-104.601 98.005-104.601zM787.769 497.339v-227.9c0-59.308-48.25-107.522-107.549-107.522h-341.513c-59.325 0-107.549 48.215-107.549 107.522v341.531c0 59.299 48.224 107.531 107.549 107.531h341.513c59.299 0 107.549-48.232 107.549-107.531v-113.631zM512.009 960c-282.772 0-512.009-229.201-512.009-511.965 0-282.79 229.237-512.009 512.009-512.009 282.719 0 511.973 229.219 511.973 512.009 0 282.763-229.254 511.965-511.973 511.965zM661.664 448.487c0-89.604-68.276-162.554-152.187-162.554-83.937 0-152.178 72.951-152.178 162.554 0 21.584 4.028 42.159 11.19 61.016h-83.105v-243.375c0-31.411 23.939-56.971 53.305-56.971h341.504c29.41 0 53.323 25.559 53.323 56.971v243.375h-83.105c7.162-18.866 11.252-39.441 11.252-61.016z" horiz-adv-x="1023" />
<glyph unicode="&#xe602;" d="M769.939 551.238c0.274-5.551 0.381-11.137 0.381-16.706 0-170.531-129.788-367.161-367.135-367.161-72.853 0-140.696 21.389-197.799 57.989 10.11-1.195 20.362-1.771 30.783-1.771 60.468 0 116.101 20.61 160.243 55.191-56.466 1.080-104.079 38.388-120.519 89.639 7.888-1.532 15.945-2.337 24.276-2.337 11.775 0 23.16 1.558 33.996 4.524-59.024 11.863-103.494 64.027-103.494 126.522 0 0.567 0 1.089 0 1.664 17.397-9.685 37.308-15.475 58.449-16.201-34.607 23.222-57.413 62.663-57.413 107.452 0 23.638 6.365 45.824 17.476 64.876 63.664-78.085 158.747-129.443 265.969-134.826-2.16 9.438-3.302 19.282-3.302 29.393 0 71.269 57.75 129.027 128.992 129.027 37.139 0 70.666-15.67 94.207-40.743 29.41 5.781 56.997 16.529 81.945 31.323-9.65-30.181-30.119-55.43-56.749-71.384 26.108 3.134 50.977 10.066 74.11 20.3-17.317-25.843-39.193-48.595-64.416-66.771zM512.018 960c-282.763 0-512.018-229.29-512.018-512.027 0-282.763 229.254-511.956 512.018-511.956 282.754 0 511.965 229.192 511.965 511.956 0 282.737-229.219 512.027-511.965 512.027z" horiz-adv-x="1023" />
<glyph unicode="&#xe603;" d="M647.534 450.142h-88.639v-316.184h-131.453v316.184h-62.477v111.639h62.477v72.331c0 51.774 24.603 132.595 132.639 132.595l97.297-0.381v-108.434h-70.658c-11.527 0-27.835-5.772-27.835-30.367v-65.744h100.157l-11.509-111.639zM512 960c-282.772 0-512-229.29-512-512.027 0-282.772 229.228-511.973 512-511.973s511.991 229.201 511.991 511.973c0 282.737-229.219 512.027-511.991 512.027z" horiz-adv-x="1023" />
<glyph unicode="&#xe604;" d="M825.813 510.507c-29.013 146.773-158.507 257.493-313.813 257.493-123.307 0-230.187-69.973-283.733-172.16-128.213-13.867-228.267-122.453-228.267-254.507 0-141.44 114.56-256 256-256h554.667c117.76 0 213.333 95.573 213.333 213.333 0 112.64-87.68 203.947-198.187 211.84zM725.333 384l-213.333-213.333-213.333 213.333h128v170.667h170.667v-170.667h128z" />
<glyph unicode="&#xe605;" d="M796.206 200.172c0-22.726-18.857-41.194-42.194-41.194h-486.29c-23.284 0-42.177 18.468-42.177 41.194v491.992c0 22.7 18.893 41.168 42.177 41.168h486.29c23.337 0 42.194-18.459 42.194-41.168v-491.992zM511.389 960c-282.436 0-511.389-228.971-511.389-511.398 0-282.471 228.953-511.442 511.389-511.442s511.407 228.971 511.407 511.442c-0.009 282.427-228.98 511.398-511.407 511.398zM610.085 517.958c-45.736 0-66.222-25.117-77.696-42.797v-0.859h-0.558c0.168 0.248 0.381 0.584 0.558 0.859v36.705h-86.142c1.098-24.284 0-259.24 0-259.24h86.142v144.803c0 7.755 0.575 15.405 2.877 21.009 6.242 15.413 20.38 31.517 44.186 31.517 31.234 0 43.691-23.753 43.691-58.635v-138.712h86.204v148.646c0 79.67-42.496 116.703-99.262 116.703zM356.024 636.928c-29.464 0-48.772-19.406-48.772-44.85 0-24.842 18.671-44.797 47.586-44.797h0.584c30.066 0 48.843 19.955 48.843 44.797-0.611 25.444-18.787 44.85-48.241 44.85zM312.369 511.858h86.195v-259.24h-86.195v259.24z" horiz-adv-x="1023" />
<glyph unicode="&#xe606;" d="M888.342-64c73.578 119.040 114.324 257.302 114.324 393.814 0 60.16-6.186 119.040-21.334 176-11.092 39.252-43.284 70.186-85.332 70.186-25.366 0-48.426-11.094-64-28.822v7.488c0 47.146-38.186 85.334-85.334 85.334s-85.334-38.186-85.334-85.334v42.666c0 47.146-38.186 85.334-85.334 85.334s-85.334-38.186-85.334-85.334l0.002 277.334c0 47.146-38.186 85.334-85.334 85.334s-85.334-38.186-85.334-85.334v-486.634c0-23.658-19.2-42.666-42.666-42.666-4.054 0-7.894 0.64-11.734 1.706l-120.534 49.066c-11.518 5.782-24.53 9.196-38.398 9.196-47.146 0-85.334-38.186-85.334-85.334 0-35.414 21.76-65.92 52.48-78.934 138.454-71.466 249.386-159.146 327.040-305.066h487.49z" />
<glyph unicode="&#xe607;" d="M810.667 554.667h-170.667v256h-256v-256h-170.667l298.667-298.667 298.667 298.667zM213.333 170.667v-85.333h597.333v85.333h-597.333z" />
<glyph unicode="&#xe608;" d="M853.333 682.667h-170.667v85.333l-85.333 85.333h-170.667l-85.333-85.333v-85.333h-170.667c-47.147 0-84.907-38.187-84.907-85.333l-0.427-469.333c0-47.147 38.187-85.333 85.333-85.333h682.667c47.147 0 85.333 38.187 85.333 85.333v469.333c0 47.147-38.187 85.333-85.333 85.333zM426.667 768h170.667v-85.333h-170.667v85.333zM512 128l-213.333 213.333h128v170.667h170.667v-170.667h128l-213.333-213.333z" />
<glyph unicode="&#xe609;" d="M658.286 493.714v-109.714q0-7.429-5.429-12.857t-12.857-5.429h-201.143v-109.714q0-8-5.143-13.143t-13.143-5.143q-6.857 0-13.714 5.714l-182.286 182.286q-5.143 5.143-5.143 13.143t5.143 13.143l182.857 182.857q5.143 5.143 13.143 5.143 7.429 0 12.857-5.429t5.429-12.857v-109.714h201.143q7.429 0 12.857-5.429t5.429-12.857zM749.714 438.857q0 84.571-41.714 156t-113.143 113.143-156 41.714-156-41.714-113.143-113.143-41.714-156 41.714-156 113.143-113.143 156-41.714 156 41.714 113.143 113.143 41.714 156zM877.714 438.857q0-119.429-58.857-220.286t-159.714-159.714-220.286-58.857-220.286 58.857-159.714 159.714-58.857 220.286 58.857 220.286 159.714 159.714 220.286 58.857 220.286-58.857 159.714-159.714 58.857-220.286z" />
<glyph unicode="&#xe60a;" d="M731.429 402.286v73.143q0 14.857-10.857 25.714t-25.714 10.857h-512q-14.857 0-25.714-10.857t-10.857-25.714v-73.143q0-14.857 10.857-25.714t25.714-10.857h512q14.857 0 25.714 10.857t10.857 25.714zM877.714 713.143v-548.571q0-68-48.286-116.286t-116.286-48.286h-548.571q-68 0-116.286 48.286t-48.286 116.286v548.571q0 68 48.286 116.286t116.286 48.286h548.571q68 0 116.286-48.286t48.286-116.286z" />
<glyph unicode="&#xe60b;" d="M731.429 402.286v73.143q0 14.857-10.857 25.714t-25.714 10.857h-182.857v182.857q0 14.857-10.857 25.714t-25.714 10.857h-73.143q-14.857 0-25.714-10.857t-10.857-25.714v-182.857h-182.857q-14.857 0-25.714-10.857t-10.857-25.714v-73.143q0-14.857 10.857-25.714t25.714-10.857h182.857v-182.857q0-14.857 10.857-25.714t25.714-10.857h73.143q14.857 0 25.714 10.857t10.857 25.714v182.857h182.857q14.857 0 25.714 10.857t10.857 25.714zM877.714 713.143v-548.571q0-68-48.286-116.286t-116.286-48.286h-548.571q-68 0-116.286 48.286t-48.286 116.286v548.571q0 68 48.286 116.286t116.286 48.286h548.571q68 0 116.286-48.286t48.286-116.286z" />
<glyph unicode="&#xe60c;" d="M877.714 713.143v-548.571q0-68-48.286-116.286t-116.286-48.286h-548.571q-68 0-116.286 48.286t-48.286 116.286v548.571q0 68 48.286 116.286t116.286 48.286h548.571q68 0 116.286-48.286t48.286-116.286z" />
<glyph unicode="&#xe60d;" d="M658.286 438.857q0-8-5.143-13.143l-182.857-182.857q-5.143-5.143-13.143-5.143-7.429 0-12.857 5.429t-5.429 12.857v109.714h-201.143q-7.429 0-12.857 5.429t-5.429 12.857v109.714q0 7.429 5.429 12.857t12.857 5.429h201.143v109.714q0 8 5.143 13.143t13.143 5.143q6.857 0 13.714-5.714l182.286-182.286q5.143-5.143 5.143-13.143zM749.714 438.857q0 84.571-41.714 156t-113.143 113.143-156 41.714-156-41.714-113.143-113.143-41.714-156 41.714-156 113.143-113.143 156-41.714 156 41.714 113.143 113.143 41.714 156zM877.714 438.857q0-119.429-58.857-220.286t-159.714-159.714-220.286-58.857-220.286 58.857-159.714 159.714-58.857 220.286 58.857 220.286 159.714 159.714 220.286 58.857 220.286-58.857 159.714-159.714 58.857-220.286z" />
<glyph unicode="&#xe60e;" d="M734.286 438.857q0 15.429-10.286 25.714l-258.857 258.857q-10.286 10.286-25.714 10.286t-25.714-10.286l-52-52q-10.286-10.286-10.286-25.714t10.286-25.714l108-108h-286.857q-14.857 0-25.714-10.857t-10.857-25.714v-73.143q0-14.857 10.857-25.714t25.714-10.857h286.857l-108-108q-10.857-10.857-10.857-25.714t10.857-25.714l52-52q10.286-10.286 25.714-10.286t25.714 10.286l258.857 258.857q10.286 10.286 10.286 25.714zM877.714 438.857q0-119.429-58.857-220.286t-159.714-159.714-220.286-58.857-220.286 58.857-159.714 159.714-58.857 220.286 58.857 220.286 159.714 159.714 220.286 58.857 220.286-58.857 159.714-159.714 58.857-220.286z" />
<glyph unicode="&#xe60f;" d="M731.429 402.286v73.143q0 14.857-10.857 25.714t-25.714 10.857h-286.857l108 108q10.857 10.857 10.857 25.714t-10.857 25.714l-52 52q-10.286 10.286-25.714 10.286t-25.714-10.286l-258.857-258.857q-10.286-10.286-10.286-25.714t10.286-25.714l258.857-258.857q10.286-10.286 25.714-10.286t25.714 10.286l52 52q10.286 10.286 10.286 25.714t-10.286 25.714l-108 108h286.857q14.857 0 25.714 10.857t10.857 25.714zM877.714 438.857q0-119.429-58.857-220.286t-159.714-159.714-220.286-58.857-220.286 58.857-159.714 159.714-58.857 220.286 58.857 220.286 159.714 159.714 220.286 58.857 220.286-58.857 159.714-159.714 58.857-220.286z" />
<glyph unicode="&#xe610;" d="M170.667 682.667h-85.333v-597.333c0-47.147 38.187-85.333 85.333-85.333h597.333v85.333h-597.333v597.333zM853.333 853.334h-512c-47.147 0-85.333-38.187-85.333-85.333v-512c0-47.147 38.187-85.333 85.333-85.333h512c47.147 0 85.333 38.187 85.333 85.333v512c0 47.147-38.187 85.333-85.333 85.333zM810.667 469.334h-426.667v85.333h426.667v-85.333zM640 298.667h-256v85.333h256v-85.333zM810.667 640h-426.667v85.333h426.667v-85.333z" />
<glyph unicode="&#xe611;" d="M810.667 810.667h-597.333c-47.147 0-85.333-38.187-85.333-85.333v-597.333c0-47.147 38.187-85.333 85.333-85.333h597.333c47.147 0 85.333 38.187 85.333 85.333v597.333c0 47.147-38.187 85.333-85.333 85.333zM384 213.334h-85.333v298.667h85.333v-298.667zM554.667 213.334h-85.333v426.667h85.333v-426.667zM725.333 213.334h-85.333v170.667h85.333v-170.667z" />
<glyph unicode="&#xe612;" d="M981.333 426.667l-104.107 118.613 14.507 157.227-154.027 34.773-80.64 135.68-145.067-62.293-145.067 62.293-80.64-135.68-154.027-34.773 14.507-157.227-104.107-118.613 104.107-118.613-14.507-157.227 154.027-34.773 80.64-135.68 145.067 62.293 145.067-62.293 80.64 135.68 154.027 34.773-14.507 157.227 104.107 118.613zM554.667 213.334h-85.333v85.333h85.333v-85.333zM554.667 384h-85.333v256h85.333v-256z" />
<glyph unicode="&#xe613;" d="M877.714 438.857q0-119.429-58.857-220.286t-159.714-159.714-220.286-58.857-220.286 58.857-159.714 159.714-58.857 220.286 58.857 220.286 159.714 159.714 220.286 58.857 220.286-58.857 159.714-159.714 58.857-220.286z" />
<glyph unicode="&#xe614;" d="M0 405.334c0-47.146 38.186-85.334 85.334-85.334h213.334v-298.666c0-47.146 38.186-85.334 85.334-85.334s85.334 38.186 85.334 85.334l-0.002 298.666h298.88c29.866 0 56.96 12.374 76.374 32.214l148.032 148.054c41.834 41.814 41.834 109.654 0 151.466l-148.034 148.052c-19.412 19.84-46.506 32.214-76.372 32.214h-298.88v42.666c0 47.146-38.186 85.334-85.334 85.334s-85.334-38.186-85.334-85.334v-42.666h-213.332c-47.146 0-85.334-38.186-85.334-85.334v-341.332z" />
<glyph unicode="&#xe900;" d="M1024 369.556l-512 397.426-512-397.428v162.038l512 397.426 512-397.428zM896 384v-384h-256v256h-256v-256h-256v384l384 288z" />
<glyph unicode="&#xe912;" d="M981.188 799.892c-143.632 20.65-302.332 32.108-469.186 32.108-166.86 0-325.556-11.458-469.194-32.108-27.53-107.726-42.808-226.75-42.808-351.892 0-125.14 15.278-244.166 42.808-351.89 143.638-20.652 302.336-32.11 469.194-32.11 166.854 0 325.552 11.458 469.186 32.11 27.532 107.724 42.812 226.75 42.812 351.89 0 125.142-15.28 244.166-42.812 351.892zM384.002 256v384l320-192-320-192z" />
<glyph unicode="&#xe94b;" d="M0 768l320 128v-768l-320-128zM384 928l320-192v-736l-320 160zM768 736l256 192v-768l-256-192z" />
<glyph unicode="&#xe99a;" d="M448 384v448c-247.424 0-448-200.576-448-448s200.576-448 448-448 448 200.576 448 448c0 72.034-17.028 140.084-47.236 200.382l-400.764-200.382zM912.764 712.382c-73.552 146.816-225.374 247.618-400.764 247.618v-448l400.764 200.382z" />
<glyph unicode="&#xe9bd;" d="M64 768h896v-192h-896zM64 512h896v-192h-896zM64 256h896v-192h-896z" />
<glyph unicode="&#xe9bf;" d="M0 768h896v-192h-896v192zM0 512h896v-192h-896v192zM0 256h896v-192h-896v192zM992 512l192-192 192 192z" horiz-adv-x="1408" />
<glyph unicode="&#xe9c0;" d="M0 768h896v-192h-896v192zM0 512h896v-192h-896v192zM0 256h896v-192h-896v192zM992 320l192 192 192-192z" horiz-adv-x="1408" />
<glyph unicode="&#xea0f;" d="M1014.662 137.34c-0.004 0.004-0.008 0.008-0.012 0.010l-310.644 310.65 310.644 310.65c0.004 0.004 0.008 0.006 0.012 0.010 3.344 3.346 5.762 7.254 7.312 11.416 4.246 11.376 1.824 24.682-7.324 33.83l-146.746 146.746c-9.148 9.146-22.45 11.566-33.828 7.32-4.16-1.55-8.070-3.968-11.418-7.31 0-0.004-0.004-0.006-0.008-0.010l-310.648-310.652-310.648 310.65c-0.004 0.004-0.006 0.006-0.010 0.010-3.346 3.342-7.254 5.76-11.414 7.31-11.38 4.248-24.682 1.826-33.83-7.32l-146.748-146.748c-9.148-9.148-11.568-22.452-7.322-33.828 1.552-4.16 3.97-8.072 7.312-11.416 0.004-0.002 0.006-0.006 0.010-0.010l310.65-310.648-310.65-310.652c-0.002-0.004-0.006-0.006-0.008-0.010-3.342-3.346-5.76-7.254-7.314-11.414-4.248-11.376-1.826-24.682 7.322-33.83l146.748-146.746c9.15-9.148 22.452-11.568 33.83-7.322 4.16 1.552 8.070 3.97 11.416 7.312 0.002 0.004 0.006 0.006 0.010 0.010l310.648 310.65 310.648-310.65c0.004-0.002 0.008-0.006 0.012-0.008 3.348-3.344 7.254-5.762 11.414-7.314 11.378-4.246 24.684-1.826 33.828 7.322l146.746 146.748c9.148 9.148 11.57 22.454 7.324 33.83-1.552 4.16-3.97 8.068-7.314 11.414z" />
<glyph unicode="&#xea7e;" d="M192 896v-768h768v768h-768zM896 192h-640v640h640v-640zM128 64v672l-64 64v-800h800l-64 64h-672zM352 704l160-160-192-192 96-96 192 192 160-160v416z" />

</font>
</defs>
</svg>
